New Download Links Speed
Download The Iron Lady 2011 720p BluRay x264-Felony .rar  kbps
Download The Iron Lady 2011 720p BluRay x264-Felony .zip  kbps
Download The Iron Lady 2011 720p BluRay x264-Felony .torrent  kbps





The Iron Lady 2011 720p BluRay x264-Felony

Plot: Tells the story of a woman who smashed through the barriers of gender and class to be heard in a male-dominated world. The story concerns power and the price that is paid for power, and is a surprising and insightful portrait of an extraordinary and complex woman.

Code:
http://www.imdb.com/title/tt1007029/
Format : Matroska
Format version : Version 2
File size : 4.36 GiB
Duration : 1h 44mn
Overall bit rate : 5 945 Kbps
Encoded date : UTC 2012-03-21 07:30:45
Writing application : mkvmerge v5.4.0 ('Piper') built on Mar 10 2012 13:34:39
Writing library : libebml v1.2.3 + libmatroska v1.3.0

Video
ID : 1
Format : AVC
Format/Info : Advanced Video Codec
Format profile : High@L4.1
Format settings, CABAC : Yes
Format settings, ReFrames : 5 frames
Codec ID : V_MPEG4/ISO/AVC
Duration : 1h 44mn
Bit rate : 4 438 Kbps
Width : 1 280 pixels
Height : 544 pixels
Display aspect ratio : 2.35:1
Frame rate : 23.976 fps
Color space : YUV
Chroma subsampling : 4:2:0
Bit depth : 8 bits
Scan type : Progressive
Bits/(Pixel*Frame) : 0.266
Stream size : 3.17 GiB (73%)
Writing library : x264 core 122 r2184 5c85e0a
Encoding settings : cabac=1 / ref=5 / deblock=1:0:0 / analyse=0x3:0x133 / me=umh / subme=8 / psy=1 / psy_rd=1.00:0.00 / mixed_ref=1 / me_range=16 / chroma_me=1 / trellis=1 / 8x8dct=1 / cqm=0 / deadzone=21,11 / fast_pskip=1 / chroma_qp_offset=-2 / threads=24 / sliced_threads=0 / nr=0 / decimate=1 / interlaced=0 / bluray_compat=0 / constrained_intra=0 / bframes=3 / b_pyramid=2 / b_adapt=1 / b_bias=0 / direct=1 / weightb=1 / open_gop=0 / weightp=2 / keyint=250 / keyint_min=23 / scenecut=40 / intra_refresh=0 / rc=2pass / mbtree=0 / bitrate=4438 / ratetol=1.0 / qcomp=0.60 / qpmin=0 / qpmax=69 / qpstep=4 / cplxblur=20.0 / qblur=0.5 / ip_ratio=1.40 / pb_ratio=1.30 / aq=1:1.00
Language : English

Audio
ID : 2
Format : DTS
Format/Info : Digital Theater Systems
Codec ID : A_DTS
Duration : 1h 44mn
Bit rate mode : Constant
Bit rate : 1 510 Kbps
Channel(s) : 6 channels
Channel positions : Front: L C R, Side: L R, LFE
Sampling rate : 48.0 KHz
Bit depth : 24 bits
Compression mode : Lossy
Stream size : 1.11 GiB (25%)
Title : English
Language : English




Code:
http://extabit.com/file/27a8bynccbzft/f-iron.lady.720.part1.rar
http://extabit.com/file/27a8bynccbzk9/f-iron.lady.720.part2.rar
http://extabit.com/file/27a8bynl5g7u1/f-iron.lady.720.part3.rar
http://extabit.com/file/27a8byncbow7t/f-iron.lady.720.part4.rar
http://extabit.com/file/27a8byncbowah/f-iron.lady.720.part5.rar
iF YOU SPOT SOME DEAD LiNKS PLEASE POST REPLY !
BACKUPS READY

PLEASE SAY THANKS!!
ENJOY !!!



You can also try to download it from our other Free Download Site
The Iron Lady 2011 720p BluRay x264-Felony Alternative Link