New Download Links Speed
Download The Secret Life of the American Teenager S04E06 720p HDTV X264-DIMENSION .rar  kbps
Download The Secret Life of the American Teenager S04E06 720p HDTV X264-DIMENSION .zip  kbps
Download The Secret Life of the American Teenager S04E06 720p HDTV X264-DIMENSION .torrent  kbps

The Secret Life of the American Teenager S04E06 720p HDTV X264-DIMENSION





Single Links | RS / NL / UL / Fserve / WU

Code:
http://www.ef.uplod.net/The_Secret_Life_of_the_American_Teenager_S04E06_720p_HDTV_X264-DIMENSION & /file/NKcqEGk
Code:
https://rapidshare.com/files/3800214197/The.Secret.Life.of.the.American.Teenager.S04E06.720p.HDTV.X264-DIMENSION.mkv
Code:
http://ef.uplod.net/The_Secret_Life_of_the_American_Teenager_S04E06_720p_HDTV_X264-DIMENSION & /06zzkk/The.Secret.Life.of.the.American.Teenager.S04E06.720p.HDTV.X264-DIMENSION.mkv
Code:
http://netload.in/datei0FpaRS4XdG/The.Secret.Life.of.the.American.Teenager.S04E06.720p.HDTV.X264-DIMENSION.mkv.htm
Code:
http://uploaded.to/file/r2waf4th
Code:
http://www.ef.uplod.net/The_Secret_Life_of_the_American_Teenager_S04E06_720p_HDTV_X264-DIMENSION & /file/61567821
Information
Code:
General
Unique ID                        : 213648074830813917392362269344475266428 (0xA0BB1F5B5B2FC02E9B71666267B63D7C)
Complete name                    : T:\The.Secret.Life.of.the.American.Teenager.S04E06.720p.HDTV.X264-DIMENSION.mkv
Format                           : Matroska
File size                        : 1.67 GiB
Duration                         : 41mn 59s
Overall bit rate                 : 5 685 Kbps
Encoded date                     : UTC 2011-07-19 00:16:42
Writing application              : mkvmerge v3.1.0 ('Happy up here') built on Jan 19 2010 12:09:24
Writing library                  : libebml v0.7.9 + libmatroska v0.8.1

Video
ID                               : 1
Format                           : AVC
Format/Info                      : Advanced Video Codec
Format profile                   : High@L4.1
Format settings, CABAC           : Yes
Format settings, ReFrames        : 8 frames
Codec ID                         : V_MPEG4/ISO/AVC
Duration                         : 41mn 59s
Bit rate                         : 5 188 Kbps
Width                            : 1 280 pixels
Height                           : 720 pixels
Display aspect ratio             : 16:9
Frame rate                       : 23.976 fps
Color space                      : YUV
Chroma subsampling               : 4:2:0
Bit depth                        : 8 bits
Scan type                        : Progressive
Bits/(Pixel*Frame)               : 0.235
Stream size                      : 1.52 GiB (91%)
Writing library                  : x264 core 116 r2019 9cc407d
Encoding settings                : cabac=1 / ref=8 / deblock=1:-2:-2 / analyse=0x3:0x113 / me=umh / subme=9 / psy=1 / psy_rd=1.00:0.00 / mixed_ref=1 / me_range=24 / chroma_me=1 / trellis=1 / 8x8dct=1 / cqm=0 / deadzone=21,11 / fast_pskip=0 / chroma_qp_offset=-2 / threads=12 / sliced_threads=0 / nr=0 / decimate=1 / interlaced=0 / bluray_compat=0 / constrained_intra=0 / bframes=5 / b_pyramid=2 / b_adapt=1 / b_bias=0 / direct=1 / weightb=1 / open_gop=0 / weightp=2 / keyint=250 / keyint_min=23 / scenecut=40 / intra_refresh=0 / rc_lookahead=40 / rc=crf / mbtree=1 / crf=19.0 / qcomp=0.60 / qpmin=0 / qpmax=69 / qpstep=4 / ip_ratio=1.40 / aq=1:1.00
Language                         : English

Audio
ID                               : 2
Format                           : AC-3
Format/Info                      : Audio Coding 3
Mode extension                   : CM (complete main)
Codec ID                         : A_AC3
Duration                         : 41mn 59s
Bit rate mode                    : Constant
Bit rate                         : 384 Kbps
Channel(s)                       : 6 channels
Channel positions                : Front: L C R, Side: L R, LFE
Sampling rate                    : 48.0 KHz
Bit depth                        : 16 bits
Compression mode                 : Lossy
Stream size                      : 115 MiB (7%)



You can also try to download it from our other Free Download Site
The Secret Life of the American Teenager S04E06 720p HDTV X264-DIMENSION Alternative Link